osu file format v14

[General]
AudioFilename: inf.mp3
AudioLeadIn: 1500
PreviewTime: 78208
Countdown: 0
SampleSet: Normal
StackLeniency: 0.7
Mode: 3
LetterboxInBreaks: 0
WidescreenStoryboard: 0

[Editor]
DistanceSpacing: 0.9
BeatDivisor: 4
GridSize: 4
TimelineZoom: 1.2

[Metadata]
Title:Imprinting
TitleUnicode:Imprinting
Artist:Sakuzyo
ArtistUnicode:削除
Creator:_FrEsH_ChICkEn_
Version:Imprint
Source:
Tags:[_A_v_a_l_o_n_] fairythm solo album no3 Pump It Up PRIME Japanese Edition
BeatmapID:764051
BeatmapSetID:346093

[Difficulty]
HPDrainRate:8
CircleSize:4
OverallDifficulty:8
ApproachRate:5
SliderMultiplier:1.4
SliderTickRate:1

[Events]
//Background and Video events
0,0,"123123.png",0,0
//Break Periods
//Storyboard Layer 0 (Background)
//Storyboard Layer 1 (Fail)
//Storyboard Layer 2 (Pass)
//Storyboard Layer 3 (Foreground)
//Storyboard Sound Samples

[TimingPoints]
2780,342.857142857143,4,1,0,33,1,0
79580,-100,4,1,0,33,0,1
89180,-100,4,1,0,33,0,0
90551,-100,4,1,0,33,0,1
101522,-100,4,1,0,33,0,0

[HitObjects]
192,192,2779,5,0,0:0:0:0:
320,192,2779,1,0,0:0:0:0:
448,192,2779,1,0,0:0:0:0:
64,192,2951,1,0,0:0:0:0:
448,192,3122,1,0,0:0:0:0:
64,192,3294,1,0,0:0:0:0:
192,192,3465,1,0,0:0:0:0:
320,192,3637,1,0,0:0:0:0:
64,192,3808,1,0,0:0:0:0:
192,192,3894,1,0,0:0:0:0:
320,192,3979,1,0,0:0:0:0:
448,192,4065,1,0,0:0:0:0:
320,192,4151,1,0,0:0:0:0:
192,192,4151,1,0,0:0:0:0:
64,192,4151,1,0,0:0:0:0:
448,192,4322,1,0,0:0:0:0:
64,192,4494,1,0,0:0:0:0:
448,192,4665,1,0,0:0:0:0:
320,192,4837,1,0,0:0:0:0:
192,192,5008,1,0,0:0:0:0:
448,192,5180,1,0,0:0:0:0:
320,192,5265,1,0,0:0:0:0:
192,192,5351,1,0,0:0:0:0:
64,192,5437,1,0,0:0:0:0:
192,192,5522,1,0,0:0:0:0:
320,192,5522,1,0,0:0:0:0:
448,192,5522,1,0,0:0:0:0:
64,192,5694,1,0,0:0:0:0:
320,192,5865,1,0,0:0:0:0:
448,192,6037,1,0,0:0:0:0:
320,192,6208,1,0,0:0:0:0:
192,192,6208,1,0,0:0:0:0:
64,192,6208,1,0,0:0:0:0:
448,192,6380,1,0,0:0:0:0:
64,192,6551,1,0,0:0:0:0:
192,192,6722,1,0,0:0:0:0:
320,192,6894,1,0,0:0:0:0:
448,192,6894,1,0,0:0:0:0:
64,192,6894,1,0,0:0:0:0:
192,192,6980,1,0,0:0:0:0:
448,192,7065,1,0,0:0:0:0:
320,192,7151,1,0,0:0:0:0:
192,192,7237,1,0,0:0:0:0:
64,192,7237,1,0,0:0:0:0:
448,192,7237,1,0,0:0:0:0:
320,192,7322,1,0,0:0:0:0:
64,192,7408,1,0,0:0:0:0:
192,192,7494,1,0,0:0:0:0:
320,192,7580,1,0,0:0:0:0:
448,192,7580,1,0,0:0:0:0:
64,192,7580,1,0,0:0:0:0:
192,192,7665,1,0,0:0:0:0:
448,192,7751,1,0,0:0:0:0:
320,192,7837,1,0,0:0:0:0:
192,192,7922,1,0,0:0:0:0:
64,192,7922,1,0,0:0:0:0:
448,192,7922,1,0,0:0:0:0:
320,192,8008,1,0,0:0:0:0:
64,192,8094,1,0,0:0:0:0:
192,192,8180,1,0,0:0:0:0:
320,192,8265,1,0,0:0:0:0:
448,192,8265,1,0,0:0:0:0:
64,192,8265,1,0,0:0:0:0:
192,192,8437,1,0,0:0:0:0:
320,192,8608,1,0,0:0:0:0:
448,192,8780,1,0,0:0:0:0:
448,192,8951,1,0,0:0:0:0:
320,192,9122,1,0,0:0:0:0:
64,192,9294,1,0,0:0:0:0:
448,192,9380,1,0,0:0:0:0:
192,192,9465,1,0,0:0:0:0:
320,192,9551,1,0,0:0:0:0:
192,192,9637,1,0,0:0:0:0:
64,192,9637,1,0,0:0:0:0:
448,192,9637,1,0,0:0:0:0:
320,192,9808,1,0,0:0:0:0:
192,192,9980,1,0,0:0:0:0:
64,192,10151,1,0,0:0:0:0:
64,192,10322,1,0,0:0:0:0:
192,192,10494,1,0,0:0:0:0:
448,192,10665,1,0,0:0:0:0:
64,192,10751,1,0,0:0:0:0:
320,192,10837,1,0,0:0:0:0:
192,192,10922,1,0,0:0:0:0:
320,192,11008,1,0,0:0:0:0:
448,192,11008,1,0,0:0:0:0:
64,192,11008,1,0,0:0:0:0:
192,192,11180,1,0,0:0:0:0:
320,192,11351,1,0,0:0:0:0:
448,192,11522,1,0,0:0:0:0:
192,192,11694,1,0,0:0:0:0:
64,192,11694,1,0,0:0:0:0:
448,192,11694,1,0,0:0:0:0:
448,192,11865,1,0,0:0:0:0:
320,192,12037,1,0,0:0:0:0:
192,192,12208,1,0,0:0:0:0:
64,192,12380,1,0,0:0:0:0:
448,192,12380,1,0,0:0:0:0:
192,192,12465,1,0,0:0:0:0:
320,192,12551,1,0,0:0:0:0:
448,192,12637,1,0,0:0:0:0:
64,192,12722,1,0,0:0:0:0:
448,192,12808,1,0,0:0:0:0:
192,192,12894,1,0,0:0:0:0:
320,192,12980,1,0,0:0:0:0:
448,192,13065,1,0,0:0:0:0:
64,192,13151,1,0,0:0:0:0:
320,192,13237,1,0,0:0:0:0:
192,192,13322,1,0,0:0:0:0:
448,192,13408,1,0,0:0:0:0:
320,192,13494,1,0,0:0:0:0:
192,192,13580,1,0,0:0:0:0:
64,192,13665,1,0,0:0:0:0:
448,192,13751,1,0,0:0:0:0:
320,192,13751,1,0,0:0:0:0:
448,192,13922,1,0,0:0:0:0:
448,192,14094,1,0,0:0:0:0:
192,192,14094,1,0,0:0:0:0:
64,192,14094,1,0,0:0:0:0:
448,192,14265,1,0,0:0:0:0:
448,192,14437,1,0,0:0:0:0:
320,192,14437,1,0,0:0:0:0:
448,192,14608,1,0,0:0:0:0:
448,192,14780,1,0,0:0:0:0:
192,192,14780,1,0,0:0:0:0:
64,192,14780,1,0,0:0:0:0:
448,192,14951,1,0,0:0:0:0:
320,192,15122,1,0,0:0:0:0:
192,192,15122,1,0,0:0:0:0:
320,192,15294,1,0,0:0:0:0:
320,192,15465,1,0,0:0:0:0:
448,192,15465,1,0,0:0:0:0:
64,192,15465,1,0,0:0:0:0:
320,192,15637,1,0,0:0:0:0:
320,192,15808,1,0,0:0:0:0:
192,192,15808,1,0,0:0:0:0:
320,192,15980,1,0,0:0:0:0:
320,192,16151,1,0,0:0:0:0:
448,192,16151,1,0,0:0:0:0:
64,192,16151,1,0,0:0:0:0:
320,192,16322,1,0,0:0:0:0:
64,192,16494,1,0,0:0:0:0:
192,192,16494,1,0,0:0:0:0:
64,192,16665,1,0,0:0:0:0:
64,192,16837,1,0,0:0:0:0:
320,192,16837,1,0,0:0:0:0:
448,192,16837,1,0,0:0:0:0:
64,192,17008,1,0,0:0:0:0:
64,192,17180,1,0,0:0:0:0:
192,192,17180,1,0,0:0:0:0:
64,192,17351,1,0,0:0:0:0:
64,192,17522,1,0,0:0:0:0:
320,192,17522,1,0,0:0:0:0:
448,192,17522,1,0,0:0:0:0:
64,192,17694,1,0,0:0:0:0:
192,192,17865,1,0,0:0:0:0:
320,192,17865,1,0,0:0:0:0:
192,192,18037,1,0,0:0:0:0:
192,192,18208,1,0,0:0:0:0:
64,192,18208,1,0,0:0:0:0:
448,192,18208,1,0,0:0:0:0:
320,192,18294,1,0,0:0:0:0:
192,192,18380,1,0,0:0:0:0:
64,192,18465,1,0,0:0:0:0:
192,192,18551,1,0,0:0:0:0:
320,192,18551,1,0,0:0:0:0:
192,192,18722,1,0,0:0:0:0:
192,192,18894,1,0,0:0:0:0:
64,192,18894,1,0,0:0:0:0:
448,192,18894,1,0,0:0:0:0:
192,192,19065,1,0,0:0:0:0:
320,192,19237,1,0,0:0:0:0:
448,192,19237,1,0,0:0:0:0:
64,192,19237,1,0,0:0:0:0:
192,192,19408,1,0,0:0:0:0:
320,192,19494,1,0,0:0:0:0:
64,192,19580,1,0,0:0:0:0:
192,192,19665,1,0,0:0:0:0:
320,192,19751,1,0,0:0:0:0:
448,192,19837,1,0,0:0:0:0:
64,192,19922,1,0,0:0:0:0:
64,192,20094,1,0,0:0:0:0:
64,192,20265,1,0,0:0:0:0:
192,192,20351,1,0,0:0:0:0:
320,192,20437,1,0,0:0:0:0:
448,192,20522,1,0,0:0:0:0:
192,192,20608,1,0,0:0:0:0:
64,192,20608,1,0,0:0:0:0:
320,192,20780,1,0,0:0:0:0:
192,192,20865,1,0,0:0:0:0:
448,192,20951,1,0,0:0:0:0:
320,192,21037,1,0,0:0:0:0:
192,192,21122,1,0,0:0:0:0:
64,192,21208,1,0,0:0:0:0:
448,192,21294,1,0,0:0:0:0:
320,192,21465,1,0,0:0:0:0:
320,192,21637,1,0,0:0:0:0:
192,192,21637,1,0,0:0:0:0:
192,192,21980,1,0,0:0:0:0:
64,192,21980,1,0,0:0:0:0:
448,192,21980,1,0,0:0:0:0:
320,192,22322,1,0,0:0:0:0:
192,192,22322,1,0,0:0:0:0:
320,192,22665,1,0,0:0:0:0:
448,192,22665,1,0,0:0:0:0:
64,192,22665,1,0,0:0:0:0:
448,192,23008,1,0,0:0:0:0:
64,192,23008,1,0,0:0:0:0:
320,192,23351,1,0,0:0:0:0:
192,192,23351,1,0,0:0:0:0:
64,192,23351,1,0,0:0:0:0:
448,192,23694,128,0,24722:0:0:0:0:
320,192,24722,1,0,0:0:0:0:
192,192,24722,1,0,0:0:0:0:
64,192,24722,1,0,0:0:0:0:
448,192,24894,1,0,0:0:0:0:
320,192,25065,1,0,0:0:0:0:
192,192,25237,1,0,0:0:0:0:
64,192,25408,1,0,0:0:0:0:
448,192,25580,1,0,0:0:0:0:
448,192,25751,1,0,0:0:0:0:
320,192,25837,1,0,0:0:0:0:
192,192,25922,1,0,0:0:0:0:
64,192,26008,1,0,0:0:0:0:
448,192,26094,1,0,0:0:0:0:
320,192,26094,1,0,0:0:0:0:
192,192,26094,1,0,0:0:0:0:
64,192,26265,1,0,0:0:0:0:
192,192,26437,1,0,0:0:0:0:
320,192,26608,1,0,0:0:0:0:
448,192,26780,1,0,0:0:0:0:
64,192,26951,1,0,0:0:0:0:
64,192,27122,1,0,0:0:0:0:
192,192,27208,1,0,0:0:0:0:
320,192,27294,1,0,0:0:0:0:
448,192,27380,1,0,0:0:0:0:
192,192,27465,1,0,0:0:0:0:
64,192,27465,1,0,0:0:0:0:
320,192,27465,1,0,0:0:0:0:
448,192,27637,1,0,0:0:0:0:
320,192,27808,1,0,0:0:0:0:
192,192,27808,1,0,0:0:0:0:
64,192,27980,1,0,0:0:0:0:
192,192,28151,1,0,0:0:0:0:
320,192,28151,1,0,0:0:0:0:
448,192,28151,1,0,0:0:0:0:
64,192,28322,1,0,0:0:0:0:
320,192,28494,1,0,0:0:0:0:
192,192,28494,1,0,0:0:0:0:
448,192,28665,1,0,0:0:0:0:
448,192,28837,1,0,0:0:0:0:
192,192,28837,1,0,0:0:0:0:
64,192,28837,1,0,0:0:0:0:
320,192,28922,1,0,0:0:0:0:
192,192,29008,1,0,0:0:0:0:
320,192,29094,1,0,0:0:0:0:
448,192,29180,1,0,0:0:0:0:
192,192,29180,1,0,0:0:0:0:
64,192,29180,1,0,0:0:0:0:
320,192,29265,1,0,0:0:0:0:
64,192,29351,1,0,0:0:0:0:
192,192,29437,1,0,0:0:0:0:
320,192,29522,1,0,0:0:0:0:
448,192,29522,1,0,0:0:0:0:
64,192,29522,1,0,0:0:0:0:
192,192,29608,1,0,0:0:0:0:
320,192,29694,1,0,0:0:0:0:
192,192,29780,1,0,0:0:0:0:
320,192,29865,1,0,0:0:0:0:
448,192,29865,1,0,0:0:0:0:
64,192,29865,1,0,0:0:0:0:
192,192,29951,1,0,0:0:0:0:
448,192,30037,1,0,0:0:0:0:
320,192,30122,1,0,0:0:0:0:
192,192,30208,1,0,0:0:0:0:
64,192,30208,1,0,0:0:0:0:
448,192,30208,1,0,0:0:0:0:
320,192,30380,1,0,0:0:0:0:
192,192,30551,1,0,0:0:0:0:
64,192,30722,1,0,0:0:0:0:
192,192,30894,1,0,0:0:0:0:
320,192,31065,1,0,0:0:0:0:
64,192,31237,1,0,0:0:0:0:
192,192,31322,1,0,0:0:0:0:
320,192,31408,1,0,0:0:0:0:
448,192,31494,1,0,0:0:0:0:
320,192,31580,1,0,0:0:0:0:
192,192,31580,1,0,0:0:0:0:
64,192,31580,1,0,0:0:0:0:
192,192,31751,1,0,0:0:0:0:
320,192,31922,1,0,0:0:0:0:
448,192,32094,1,0,0:0:0:0:
320,192,32265,1,0,0:0:0:0:
192,192,32437,1,0,0:0:0:0:
448,192,32608,1,0,0:0:0:0:
320,192,32694,1,0,0:0:0:0:
192,192,32780,1,0,0:0:0:0:
64,192,32865,1,0,0:0:0:0:
320,192,32951,1,0,0:0:0:0:
192,192,32951,1,0,0:0:0:0:
448,192,32951,1,0,0:0:0:0:
64,192,33122,1,0,0:0:0:0:
192,192,33294,1,0,0:0:0:0:
320,192,33465,1,0,0:0:0:0:
192,192,33637,1,0,0:0:0:0:
64,192,33637,1,0,0:0:0:0:
448,192,33637,1,0,0:0:0:0:
320,192,33808,1,0,0:0:0:0:
192,192,33980,1,0,0:0:0:0:
64,192,34151,1,0,0:0:0:0:
448,192,34322,1,0,0:0:0:0:
320,192,34408,1,0,0:0:0:0:
192,192,34494,1,0,0:0:0:0:
320,192,34580,1,0,0:0:0:0:
448,192,34665,1,0,0:0:0:0:
64,192,34751,1,0,0:0:0:0:
192,192,34837,1,0,0:0:0:0:
320,192,34922,1,0,0:0:0:0:
192,192,35008,1,0,0:0:0:0:
320,192,35094,1,0,0:0:0:0:
64,192,35180,1,0,0:0:0:0:
448,192,35265,1,0,0:0:0:0:
64,192,35351,1,0,0:0:0:0:
192,192,35437,1,0,0:0:0:0:
320,192,35522,1,0,0:0:0:0:
448,192,35608,1,0,0:0:0:0:
64,192,35694,1,0,0:0:0:0:
192,192,35694,1,0,0:0:0:0:
64,192,35865,1,0,0:0:0:0:
64,192,36037,1,0,0:0:0:0:
320,192,36037,1,0,0:0:0:0:
448,192,36037,1,0,0:0:0:0:
64,192,36208,1,0,0:0:0:0:
192,192,36380,1,0,0:0:0:0:
320,192,36380,1,0,0:0:0:0:
192,192,36551,1,0,0:0:0:0:
192,192,36722,1,0,0:0:0:0:
448,192,36722,1,0,0:0:0:0:
64,192,36722,1,0,0:0:0:0:
192,192,36894,1,0,0:0:0:0:
320,192,37065,1,0,0:0:0:0:
192,192,37065,1,0,0:0:0:0:
320,192,37237,1,0,0:0:0:0:
320,192,37408,1,0,0:0:0:0:
448,192,37408,1,0,0:0:0:0:
64,192,37408,1,0,0:0:0:0:
320,192,37580,1,0,0:0:0:0:
448,192,37751,1,0,0:0:0:0:
320,192,37751,1,0,0:0:0:0:
448,192,37922,1,0,0:0:0:0:
448,192,38094,1,0,0:0:0:0:
192,192,38094,1,0,0:0:0:0:
64,192,38094,1,0,0:0:0:0:
320,192,38180,1,0,0:0:0:0:
448,192,38265,1,0,0:0:0:0:
64,192,38437,1,0,0:0:0:0:
320,192,38437,1,0,0:0:0:0:
64,192,38608,1,0,0:0:0:0:
64,192,38780,1,0,0:0:0:0:
448,192,38780,1,0,0:0:0:0:
192,192,38780,1,0,0:0:0:0:
64,192,38951,1,0,0:0:0:0:
320,192,39122,1,0,0:0:0:0:
192,192,39122,1,0,0:0:0:0:
320,192,39294,1,0,0:0:0:0:
320,192,39465,1,0,0:0:0:0:
448,192,39465,1,0,0:0:0:0:
64,192,39465,1,0,0:0:0:0:
320,192,39637,1,0,0:0:0:0:
192,192,39808,1,0,0:0:0:0:
320,192,39808,1,0,0:0:0:0:
192,192,39980,1,0,0:0:0:0:
192,192,40151,1,0,0:0:0:0:
64,192,40151,1,0,0:0:0:0:
448,192,40151,1,0,0:0:0:0:
192,192,40322,1,0,0:0:0:0:
448,192,40494,1,0,0:0:0:0:
192,192,40494,1,0,0:0:0:0:
448,192,40665,1,0,0:0:0:0:
448,192,40837,1,0,0:0:0:0:
192,192,40837,1,0,0:0:0:0:
64,192,40837,1,0,0:0:0:0:
448,192,41008,1,0,0:0:0:0:
320,192,41180,1,0,0:0:0:0:
64,192,41180,1,0,0:0:0:0:
64,192,41351,1,0,0:0:0:0:
192,192,41437,1,0,0:0:0:0:
448,192,41522,1,0,0:0:0:0:
320,192,41608,1,0,0:0:0:0:
192,192,41694,1,0,0:0:0:0:
64,192,41780,1,0,0:0:0:0:
448,192,41865,1,0,0:0:0:0:
448,192,42037,1,0,0:0:0:0:
448,192,42208,1,0,0:0:0:0:
320,192,42294,1,0,0:0:0:0:
192,192,42380,1,0,0:0:0:0:
64,192,42465,1,0,0:0:0:0:
192,192,42551,1,0,0:0:0:0:
448,192,42551,1,0,0:0:0:0:
448,192,42722,1,0,0:0:0:0:
320,192,42808,1,0,0:0:0:0:
64,192,42894,1,0,0:0:0:0:
192,192,42980,1,0,0:0:0:0:
320,192,43065,1,0,0:0:0:0:
448,192,43151,1,0,0:0:0:0:
64,192,43237,1,0,0:0:0:0:
192,192,43408,1,0,0:0:0:0:
320,192,43580,1,0,0:0:0:0:
448,192,43580,1,0,0:0:0:0:
192,192,43922,1,0,0:0:0:0:
64,192,43922,1,0,0:0:0:0:
448,192,43922,1,0,0:0:0:0:
448,192,44265,1,0,0:0:0:0:
64,192,44265,1,0,0:0:0:0:
320,192,44608,1,0,0:0:0:0:
448,192,44608,1,0,0:0:0:0:
64,192,44608,1,0,0:0:0:0:
448,192,44951,1,0,0:0:0:0:
64,192,44951,1,0,0:0:0:0:
192,192,45294,1,0,0:0:0:0:
64,192,45294,1,0,0:0:0:0:
448,192,45294,1,0,0:0:0:0:
64,192,45637,128,0,45894:0:0:0:0:
64,192,45980,128,0,46237:0:0:0:0:
192,192,46237,128,0,46494:0:0:0:0:
320,192,46494,128,0,46665:0:0:0:0:
64,192,46665,128,0,46837:0:0:0:0:
448,192,46665,1,0,0:0:0:0:
192,192,46837,128,0,47008:0:0:0:0:
64,192,47008,128,0,47180:0:0:0:0:
320,192,47008,1,0,0:0:0:0:
448,192,47008,1,0,0:0:0:0:
192,192,47180,128,0,47351:0:0:0:0:
320,192,47351,128,0,47522:0:0:0:0:
64,192,47351,1,0,0:0:0:0:
448,192,47522,128,0,47694:0:0:0:0:
320,192,47694,128,0,47865:0:0:0:0:
192,192,47694,1,0,0:0:0:0:
64,192,47694,1,0,0:0:0:0:
448,192,47865,128,0,48037:0:0:0:0:
192,192,48037,128,0,48208:0:0:0:0:
320,192,48037,1,0,0:0:0:0:
64,192,48208,128,0,48380:0:0:0:0:
192,192,48380,128,0,48551:0:0:0:0:
320,192,48380,1,0,0:0:0:0:
448,192,48380,1,0,0:0:0:0:
64,192,48551,128,0,48722:0:0:0:0:
320,192,48722,128,0,48894:0:0:0:0:
192,192,48722,1,0,0:0:0:0:
448,192,48894,128,0,49065:0:0:0:0:
320,192,49065,128,0,49237:0:0:0:0:
192,192,49065,1,0,0:0:0:0:
64,192,49065,1,0,0:0:0:0:
448,192,49237,128,0,49408:0:0:0:0:
64,192,49408,128,0,49580:0:0:0:0:
320,192,49408,1,0,0:0:0:0:
192,192,49580,128,0,49751:0:0:0:0:
320,192,49751,128,0,49922:0:0:0:0:
448,192,49751,1,0,0:0:0:0:
64,192,49751,1,0,0:0:0:0:
64,192,49922,128,0,50094:0:0:0:0:
448,192,50094,128,0,50265:0:0:0:0:
192,192,50094,1,0,0:0:0:0:
320,192,50265,128,0,50437:0:0:0:0:
192,192,50437,128,0,50608:0:0:0:0:
448,192,50437,1,0,0:0:0:0:
64,192,50437,1,0,0:0:0:0:
448,192,50608,128,0,50780:0:0:0:0:
320,192,50780,128,0,50951:0:0:0:0:
64,192,50780,1,0,0:0:0:0:
192,192,50951,128,0,51122:0:0:0:0:
320,192,51122,128,0,51294:0:0:0:0:
64,192,51122,1,0,0:0:0:0:
448,192,51122,1,0,0:0:0:0:
192,192,51294,128,0,51465:0:0:0:0:
448,192,51465,128,0,52151:0:0:0:0:
320,192,51465,1,0,0:0:0:0:
64,192,51808,1,0,0:0:0:0:
192,192,51808,1,0,0:0:0:0:
320,192,52151,128,0,52322:0:0:0:0:
64,192,52151,1,0,0:0:0:0:
192,192,52322,128,0,52494:0:0:0:0:
320,192,52494,128,0,52665:0:0:0:0:
64,192,52494,1,0,0:0:0:0:
448,192,52494,1,0,0:0:0:0:
192,192,52665,128,0,52837:0:0:0:0:
64,192,52837,128,0,53008:0:0:0:0:
448,192,52837,1,0,0:0:0:0:
192,192,53008,128,0,53180:0:0:0:0:
64,192,53180,128,0,53351:0:0:0:0:
320,192,53180,1,0,0:0:0:0:
448,192,53180,1,0,0:0:0:0:
192,192,53351,128,0,53522:0:0:0:0:
320,192,53522,128,0,53694:0:0:0:0:
64,192,53522,1,0,0:0:0:0:
192,192,53694,128,0,53865:0:0:0:0:
320,192,53865,128,0,54037:0:0:0:0:
448,192,53865,1,0,0:0:0:0:
64,192,53865,1,0,0:0:0:0:
192,192,54037,128,0,54208:0:0:0:0:
320,192,54208,128,0,54380:0:0:0:0:
64,192,54208,1,0,0:0:0:0:
448,192,54380,128,0,54551:0:0:0:0:
320,192,54551,128,0,54722:0:0:0:0:
192,192,54551,1,0,0:0:0:0:
64,192,54551,1,0,0:0:0:0:
448,192,54722,128,0,54894:0:0:0:0:
320,192,54894,1,0,0:0:0:0:
64,192,54894,1,0,0:0:0:0:
192,192,55065,1,0,0:0:0:0:
320,192,55151,1,0,0:0:0:0:
64,192,55237,1,0,0:0:0:0:
192,192,55322,1,0,0:0:0:0:
320,192,55408,1,0,0:0:0:0:
448,192,55494,1,0,0:0:0:0:
64,192,55580,1,0,0:0:0:0:
192,192,55751,1,0,0:0:0:0:
320,192,55751,1,0,0:0:0:0:
448,192,55751,1,0,0:0:0:0:
448,192,55922,1,0,0:0:0:0:
320,192,55922,1,0,0:0:0:0:
192,192,55922,1,0,0:0:0:0:
192,192,56094,1,0,0:0:0:0:
320,192,56094,1,0,0:0:0:0:
448,192,56094,1,0,0:0:0:0:
448,192,56265,1,0,0:0:0:0:
320,192,56265,1,0,0:0:0:0:
192,192,56265,1,0,0:0:0:0:
320,192,56437,1,0,0:0:0:0:
192,192,56522,1,0,0:0:0:0:
448,192,56608,1,0,0:0:0:0:
320,192,56694,1,0,0:0:0:0:
192,192,56780,1,0,0:0:0:0:
64,192,56865,1,0,0:0:0:0:
448,192,56951,1,0,0:0:0:0:
320,192,57122,1,0,0:0:0:0:
192,192,57122,1,0,0:0:0:0:
64,192,57122,1,0,0:0:0:0:
320,192,57294,1,0,0:0:0:0:
192,192,57294,1,0,0:0:0:0:
64,192,57294,1,0,0:0:0:0:
320,192,57465,1,0,0:0:0:0:
64,192,57465,1,0,0:0:0:0:
192,192,57465,1,0,0:0:0:0:
320,192,57637,1,0,0:0:0:0:
192,192,57637,1,0,0:0:0:0:
448,192,57980,1,0,0:0:0:0:
320,192,58237,1,0,0:0:0:0:
192,192,58322,1,0,0:0:0:0:
64,192,58494,1,0,0:0:0:0:
192,192,58665,1,0,0:0:0:0:
320,192,58837,1,0,0:0:0:0:
448,192,59008,1,0,0:0:0:0:
320,192,59351,1,0,0:0:0:0:
64,192,59694,1,0,0:0:0:0:
192,192,60037,1,0,0:0:0:0:
64,192,60380,128,0,61065:0:0:0:0:
320,192,60380,1,0,0:0:0:0:
448,192,60551,1,0,0:0:0:0:
320,192,60722,1,0,0:0:0:0:
192,192,60722,1,0,0:0:0:0:
448,192,60894,1,0,0:0:0:0:
192,192,61065,128,0,61580:0:0:0:0:
320,192,61065,1,0,0:0:0:0:
64,192,61237,1,0,0:0:0:0:
320,192,61408,1,0,0:0:0:0:
448,192,61408,1,0,0:0:0:0:
448,192,61580,1,0,0:0:0:0:
64,192,61665,1,0,0:0:0:0:
192,192,61751,128,0,62437:0:0:0:0:
320,192,61751,1,0,0:0:0:0:
64,192,61922,1,0,0:0:0:0:
448,192,62094,1,0,0:0:0:0:
64,192,62094,1,0,0:0:0:0:
320,192,62265,1,0,0:0:0:0:
64,192,62437,128,0,62951:0:0:0:0:
448,192,62437,1,0,0:0:0:0:
192,192,62608,1,0,0:0:0:0:
320,192,62780,1,0,0:0:0:0:
448,192,62780,1,0,0:0:0:0:
320,192,62951,1,0,0:0:0:0:
192,192,63037,1,0,0:0:0:0:
64,192,63122,128,0,63808:0:0:0:0:
448,192,63122,1,0,0:0:0:0:
320,192,63294,1,0,0:0:0:0:
448,192,63465,1,0,0:0:0:0:
192,192,63465,1,0,0:0:0:0:
320,192,63637,1,0,0:0:0:0:
448,192,63808,1,0,0:0:0:0:
192,192,63808,128,0,64151:0:0:0:0:
320,192,63980,1,0,0:0:0:0:
448,192,64151,1,0,0:0:0:0:
320,192,64151,1,0,0:0:0:0:
64,192,64151,128,0,64494:0:0:0:0:
192,192,64322,1,0,0:0:0:0:
192,192,64494,128,0,65180:0:0:0:0:
320,192,64494,1,0,0:0:0:0:
448,192,64665,1,0,0:0:0:0:
320,192,64837,1,0,0:0:0:0:
64,192,64837,1,0,0:0:0:0:
448,192,65008,1,0,0:0:0:0:
320,192,65180,128,0,65865:0:0:0:0:
64,192,65180,1,0,0:0:0:0:
192,192,65351,1,0,0:0:0:0:
448,192,65522,1,0,0:0:0:0:
64,192,65522,1,0,0:0:0:0:
192,192,65694,1,0,0:0:0:0:
448,192,65865,128,0,66551:0:0:0:0:
192,192,65865,1,0,0:0:0:0:
64,192,66037,1,0,0:0:0:0:
192,192,66208,1,0,0:0:0:0:
320,192,66208,1,0,0:0:0:0:
64,192,66380,1,0,0:0:0:0:
320,192,66551,128,0,67065:0:0:0:0:
192,192,66551,1,0,0:0:0:0:
448,192,66722,1,0,0:0:0:0:
192,192,66894,1,0,0:0:0:0:
64,192,66894,1,0,0:0:0:0:
64,192,67065,1,0,0:0:0:0:
448,192,67151,1,0,0:0:0:0:
192,192,67237,1,0,0:0:0:0:
320,192,67237,128,0,67922:0:0:0:0:
448,192,67408,1,0,0:0:0:0:
448,192,67580,1,0,0:0:0:0:
64,192,67580,1,0,0:0:0:0:
192,192,67751,1,0,0:0:0:0:
448,192,67922,128,0,68437:0:0:0:0:
64,192,67922,1,0,0:0:0:0:
320,192,68094,1,0,0:0:0:0:
64,192,68265,1,0,0:0:0:0:
192,192,68265,1,0,0:0:0:0:
192,192,68437,1,0,0:0:0:0:
320,192,68522,1,0,0:0:0:0:
448,192,68608,128,0,69294:0:0:0:0:
64,192,68608,1,0,0:0:0:0:
192,192,68780,1,0,0:0:0:0:
64,192,68951,1,0,0:0:0:0:
320,192,68951,1,0,0:0:0:0:
192,192,69122,1,0,0:0:0:0:
320,192,69294,128,0,69637:0:0:0:0:
64,192,69294,1,0,0:0:0:0:
192,192,69465,1,0,0:0:0:0:
64,192,69637,1,0,0:0:0:0:
448,192,69637,128,0,69980:0:0:0:0:
192,192,69637,1,0,0:0:0:0:
320,192,69808,1,0,0:0:0:0:
320,192,69980,128,0,70665:0:0:0:0:
192,192,69980,1,0,0:0:0:0:
64,192,70151,1,0,0:0:0:0:
192,192,70322,1,0,0:0:0:0:
448,192,70322,1,0,0:0:0:0:
64,192,70494,1,0,0:0:0:0:
448,192,70665,1,0,0:0:0:0:
192,192,70665,128,0,71351:0:0:0:0:
320,192,70837,1,0,0:0:0:0:
64,192,71008,1,0,0:0:0:0:
448,192,71008,1,0,0:0:0:0:
320,192,71180,1,0,0:0:0:0:
64,192,71351,128,0,72037:0:0:0:0:
448,192,71351,1,0,0:0:0:0:
320,192,71351,1,0,0:0:0:0:
448,192,71522,1,0,0:0:0:0:
320,192,71694,1,0,0:0:0:0:
192,192,71694,1,0,0:0:0:0:
448,192,71865,1,0,0:0:0:0:
192,192,72037,128,0,72551:0:0:0:0:
320,192,72037,1,0,0:0:0:0:
448,192,72208,1,0,0:0:0:0:
320,192,72380,1,0,0:0:0:0:
64,192,72380,1,0,0:0:0:0:
64,192,72551,1,0,0:0:0:0:
448,192,72637,1,0,0:0:0:0:
320,192,72722,128,0,73408:0:0:0:0:
192,192,72722,1,0,0:0:0:0:
64,192,72894,1,0,0:0:0:0:
192,192,73065,1,0,0:0:0:0:
448,192,73065,1,0,0:0:0:0:
64,192,73237,1,0,0:0:0:0:
192,192,73408,128,0,73922:0:0:0:0:
448,192,73408,1,0,0:0:0:0:
64,192,73580,1,0,0:0:0:0:
320,192,73751,1,0,0:0:0:0:
448,192,73751,1,0,0:0:0:0:
448,192,73922,1,0,0:0:0:0:
64,192,74008,1,0,0:0:0:0:
320,192,74094,128,0,74780:0:0:0:0:
192,192,74094,1,0,0:0:0:0:
448,192,74265,1,0,0:0:0:0:
192,192,74437,1,0,0:0:0:0:
64,192,74437,1,0,0:0:0:0:
192,192,74608,1,0,0:0:0:0:
448,192,74780,128,0,75465:0:0:0:0:
64,192,74780,1,0,0:0:0:0:
192,192,74951,1,0,0:0:0:0:
320,192,75122,1,0,0:0:0:0:
64,192,75122,1,0,0:0:0:0:
192,192,75294,1,0,0:0:0:0:
192,192,75465,128,0,76151:0:0:0:0:
64,192,75465,1,0,0:0:0:0:
320,192,75637,1,0,0:0:0:0:
64,192,75808,1,0,0:0:0:0:
448,192,75808,1,0,0:0:0:0:
320,192,75980,1,0,0:0:0:0:
64,192,76151,128,0,76837:0:0:0:0:
448,192,76151,1,0,0:0:0:0:
320,192,76322,1,0,0:0:0:0:
192,192,76494,1,0,0:0:0:0:
448,192,76494,1,0,0:0:0:0:
320,192,76665,1,0,0:0:0:0:
192,192,76837,128,0,78208:0:0:0:0:
448,192,76837,1,0,0:0:0:0:
320,192,77008,1,0,0:0:0:0:
448,192,77180,1,0,0:0:0:0:
64,192,77180,1,0,0:0:0:0:
320,192,77351,1,0,0:0:0:0:
448,192,77522,1,0,0:0:0:0:
64,192,77694,1,0,0:0:0:0:
320,192,77865,1,0,0:0:0:0:
448,192,77865,1,0,0:0:0:0:
64,192,78037,1,0,0:0:0:0:
320,192,78208,1,0,0:0:0:0:
448,192,78208,1,0,0:0:0:0:
64,192,78551,1,0,0:0:0:0:
192,192,78894,1,0,0:0:0:0:
448,192,79065,1,0,0:0:0:0:
320,192,79065,1,0,0:0:0:0:
448,192,79237,1,0,0:0:0:0:
192,192,79237,1,0,0:0:0:0:
448,192,79408,1,0,0:0:0:0:
64,192,79408,1,0,0:0:0:0:
192,192,79580,1,0,0:0:0:0:
64,192,79580,1,0,0:0:0:0:
192,192,79751,1,0,0:0:0:0:
64,192,79751,1,0,0:0:0:0:
192,192,79922,1,0,0:0:0:0:
64,192,79922,1,0,0:0:0:0:
192,192,80094,1,0,0:0:0:0:
64,192,80094,1,0,0:0:0:0:
192,192,80180,1,0,0:0:0:0:
320,192,80180,1,0,0:0:0:0:
320,192,80265,1,0,0:0:0:0:
448,192,80265,1,0,0:0:0:0:
448,192,80437,1,0,0:0:0:0:
320,192,80437,1,0,0:0:0:0:
320,192,80608,1,0,0:0:0:0:
448,192,80608,1,0,0:0:0:0:
448,192,80780,1,0,0:0:0:0:
320,192,80780,1,0,0:0:0:0:
192,192,80865,1,0,0:0:0:0:
320,192,80865,1,0,0:0:0:0:
64,192,80951,1,0,0:0:0:0:
448,192,80951,1,0,0:0:0:0:
192,192,81122,1,0,0:0:0:0:
448,192,81122,1,0,0:0:0:0:
448,192,81294,1,0,0:0:0:0:
64,192,81294,1,0,0:0:0:0:
320,192,81465,1,0,0:0:0:0:
64,192,81465,1,0,0:0:0:0:
320,192,81637,1,0,0:0:0:0:
448,192,81637,1,0,0:0:0:0:
448,192,81808,1,0,0:0:0:0:
64,192,81808,1,0,0:0:0:0:
192,192,81980,1,0,0:0:0:0:
64,192,81980,1,0,0:0:0:0:
64,192,82151,1,0,0:0:0:0:
448,192,82151,1,0,0:0:0:0:
192,192,82322,1,0,0:0:0:0:
320,192,82408,1,0,0:0:0:0:
64,192,82494,1,0,0:0:0:0:
448,192,82580,1,0,0:0:0:0:
192,192,82665,1,0,0:0:0:0:
320,192,82751,1,0,0:0:0:0:
64,192,82837,1,0,0:0:0:0:
448,192,82922,1,0,0:0:0:0:
320,192,83008,1,0,0:0:0:0:
192,192,83094,1,0,0:0:0:0:
448,192,83180,1,0,0:0:0:0:
64,192,83265,1,0,0:0:0:0:
320,192,83351,1,0,0:0:0:0:
192,192,83437,1,0,0:0:0:0:
448,192,83522,1,0,0:0:0:0:
64,192,83608,1,0,0:0:0:0:
192,192,83694,1,0,0:0:0:0:
448,192,83780,1,0,0:0:0:0:
64,192,83865,1,0,0:0:0:0:
320,192,83951,1,0,0:0:0:0:
192,192,84037,1,0,0:0:0:0:
448,192,84122,1,0,0:0:0:0:
64,192,84208,1,0,0:0:0:0:
320,192,84294,1,0,0:0:0:0:
192,192,84380,1,0,0:0:0:0:
64,192,84380,1,0,0:0:0:0:
192,192,84551,1,0,0:0:0:0:
320,192,84551,1,0,0:0:0:0:
320,192,84722,1,0,0:0:0:0:
448,192,84722,1,0,0:0:0:0:
448,192,84894,1,0,0:0:0:0:
64,192,84894,1,0,0:0:0:0:
64,192,85065,1,0,0:0:0:0:
320,192,85065,1,0,0:0:0:0:
320,192,85237,1,0,0:0:0:0:
64,192,85237,1,0,0:0:0:0:
320,192,85408,1,0,0:0:0:0:
64,192,85408,1,0,0:0:0:0:
64,192,85580,1,0,0:0:0:0:
320,192,85580,1,0,0:0:0:0:
192,192,85665,1,0,0:0:0:0:
320,192,85665,1,0,0:0:0:0:
192,192,85751,1,0,0:0:0:0:
448,192,85751,1,0,0:0:0:0:
448,192,85922,1,0,0:0:0:0:
192,192,85922,1,0,0:0:0:0:
448,192,86094,1,0,0:0:0:0:
192,192,86094,1,0,0:0:0:0:
448,192,86265,1,0,0:0:0:0:
192,192,86265,1,0,0:0:0:0:
320,192,86351,1,0,0:0:0:0:
192,192,86351,1,0,0:0:0:0:
448,192,86437,1,0,0:0:0:0:
64,192,86437,1,0,0:0:0:0:
192,192,86608,1,0,0:0:0:0:
320,192,86608,1,0,0:0:0:0:
320,192,86780,1,0,0:0:0:0:
448,192,86780,1,0,0:0:0:0:
192,192,86951,1,0,0:0:0:0:
64,192,86951,1,0,0:0:0:0:
448,192,87122,1,0,0:0:0:0:
192,192,87122,1,0,0:0:0:0:
320,192,87294,1,0,0:0:0:0:
64,192,87294,1,0,0:0:0:0:
320,192,87465,1,0,0:0:0:0:
192,192,87465,1,0,0:0:0:0:
448,192,87637,1,0,0:0:0:0:
64,192,87637,1,0,0:0:0:0:
64,192,87808,1,0,0:0:0:0:
192,192,87894,1,0,0:0:0:0:
320,192,87980,1,0,0:0:0:0:
448,192,88065,1,0,0:0:0:0:
64,192,88151,1,0,0:0:0:0:
192,192,88237,1,0,0:0:0:0:
320,192,88322,1,0,0:0:0:0:
448,192,88408,1,0,0:0:0:0:
320,192,88494,1,0,0:0:0:0:
192,192,88580,1,0,0:0:0:0:
320,192,88665,1,0,0:0:0:0:
192,192,88751,1,0,0:0:0:0:
448,192,88837,1,0,0:0:0:0:
64,192,88922,1,0,0:0:0:0:
448,192,89008,1,0,0:0:0:0:
64,192,89094,1,0,0:0:0:0:
448,192,89180,1,0,0:0:0:0:
320,192,89180,1,0,0:0:0:0:
192,192,89351,1,0,0:0:0:0:
320,192,89351,1,0,0:0:0:0:
64,192,89522,1,0,0:0:0:0:
192,192,89522,1,0,0:0:0:0:
192,192,89694,1,0,0:0:0:0:
320,192,89694,1,0,0:0:0:0:
320,192,89865,1,0,0:0:0:0:
192,192,89865,1,0,0:0:0:0:
64,192,89865,1,0,0:0:0:0:
192,192,90037,1,0,0:0:0:0:
320,192,90037,1,0,0:0:0:0:
448,192,90037,1,0,0:0:0:0:
192,192,90208,1,0,0:0:0:0:
64,192,90208,1,0,0:0:0:0:
448,192,90208,1,0,0:0:0:0:
320,192,90380,1,0,0:0:0:0:
448,192,90380,1,0,0:0:0:0:
64,192,90380,1,0,0:0:0:0:
320,192,90551,1,0,0:0:0:0:
448,192,90551,1,0,0:0:0:0:
320,192,90722,1,0,0:0:0:0:
448,192,90722,1,0,0:0:0:0:
320,192,90894,1,0,0:0:0:0:
448,192,90894,1,0,0:0:0:0:
448,192,91065,1,0,0:0:0:0:
320,192,91065,1,0,0:0:0:0:
320,192,91151,1,0,0:0:0:0:
192,192,91151,1,0,0:0:0:0:
192,192,91237,1,0,0:0:0:0:
64,192,91237,1,0,0:0:0:0:
192,192,91408,1,0,0:0:0:0:
64,192,91408,1,0,0:0:0:0:
192,192,91580,1,0,0:0:0:0:
64,192,91580,1,0,0:0:0:0:
192,192,91751,1,0,0:0:0:0:
64,192,91751,1,0,0:0:0:0:
192,192,91837,1,0,0:0:0:0:
320,192,91837,1,0,0:0:0:0:
448,192,91922,1,0,0:0:0:0:
64,192,91922,1,0,0:0:0:0:
448,192,92094,1,0,0:0:0:0:
192,192,92094,1,0,0:0:0:0:
64,192,92265,1,0,0:0:0:0:
448,192,92265,1,0,0:0:0:0:
192,192,92437,1,0,0:0:0:0:
448,192,92437,1,0,0:0:0:0:
64,192,92608,1,0,0:0:0:0:
448,192,92608,1,0,0:0:0:0:
320,192,92780,1,0,0:0:0:0:
64,192,92780,1,0,0:0:0:0:
448,192,92951,1,0,0:0:0:0:
64,192,92951,1,0,0:0:0:0:
320,192,93122,1,0,0:0:0:0:
64,192,93122,1,0,0:0:0:0:
192,192,93294,1,0,0:0:0:0:
448,192,93380,1,0,0:0:0:0:
64,192,93465,1,0,0:0:0:0:
320,192,93551,1,0,0:0:0:0:
192,192,93637,1,0,0:0:0:0:
448,192,93722,1,0,0:0:0:0:
64,192,93808,1,0,0:0:0:0:
320,192,93894,1,0,0:0:0:0:
192,192,93980,1,0,0:0:0:0:
448,192,94065,1,0,0:0:0:0:
64,192,94151,1,0,0:0:0:0:
320,192,94237,1,0,0:0:0:0:
64,192,94322,1,0,0:0:0:0:
192,192,94408,1,0,0:0:0:0:
320,192,94494,1,0,0:0:0:0:
448,192,94580,1,0,0:0:0:0:
320,192,94665,1,0,0:0:0:0:
64,192,94751,1,0,0:0:0:0:
448,192,94837,1,0,0:0:0:0:
192,192,94922,1,0,0:0:0:0:
320,192,95008,1,0,0:0:0:0:
64,192,95094,1,0,0:0:0:0:
448,192,95180,1,0,0:0:0:0:
192,192,95265,1,0,0:0:0:0:
320,192,95351,1,0,0:0:0:0:
448,192,95351,1,0,0:0:0:0:
320,192,95522,1,0,0:0:0:0:
192,192,95522,1,0,0:0:0:0:
448,192,95694,1,0,0:0:0:0:
64,192,95694,1,0,0:0:0:0:
320,192,95865,1,0,0:0:0:0:
192,192,95865,1,0,0:0:0:0:
448,192,96037,1,0,0:0:0:0:
192,192,96037,1,0,0:0:0:0:
192,192,96208,1,0,0:0:0:0:
448,192,96208,1,0,0:0:0:0:
448,192,96380,1,0,0:0:0:0:
192,192,96380,1,0,0:0:0:0:
448,192,96551,1,0,0:0:0:0:
192,192,96551,1,0,0:0:0:0:
320,192,96637,1,0,0:0:0:0:
192,192,96637,1,0,0:0:0:0:
320,192,96722,1,0,0:0:0:0:
64,192,96722,1,0,0:0:0:0:
320,192,96894,1,0,0:0:0:0:
64,192,96894,1,0,0:0:0:0:
320,192,97065,1,0,0:0:0:0:
64,192,97065,1,0,0:0:0:0:
64,192,97237,1,0,0:0:0:0:
320,192,97237,1,0,0:0:0:0:
192,192,97322,1,0,0:0:0:0:
320,192,97322,1,0,0:0:0:0:
64,192,97408,1,0,0:0:0:0:
448,192,97408,1,0,0:0:0:0:
320,192,97580,1,0,0:0:0:0:
192,192,97580,1,0,0:0:0:0:
448,192,97751,1,0,0:0:0:0:
64,192,97751,1,0,0:0:0:0:
192,192,97922,1,0,0:0:0:0:
320,192,97922,1,0,0:0:0:0:
448,192,98094,1,0,0:0:0:0:
64,192,98094,1,0,0:0:0:0:
320,192,98265,1,0,0:0:0:0:
64,192,98265,1,0,0:0:0:0:
448,192,98437,1,0,0:0:0:0:
64,192,98437,1,0,0:0:0:0:
320,192,98608,1,0,0:0:0:0:
64,192,98608,1,0,0:0:0:0:
448,192,98780,1,0,0:0:0:0:
320,192,98865,1,0,0:0:0:0:
448,192,98951,1,0,0:0:0:0:
320,192,99037,1,0,0:0:0:0:
192,192,99122,1,0,0:0:0:0:
320,192,99208,1,0,0:0:0:0:
192,192,99294,1,0,0:0:0:0:
320,192,99380,1,0,0:0:0:0:
192,192,99465,1,0,0:0:0:0:
64,192,99551,1,0,0:0:0:0:
192,192,99637,1,0,0:0:0:0:
64,192,99722,1,0,0:0:0:0:
192,192,99808,1,0,0:0:0:0:
320,192,99894,1,0,0:0:0:0:
192,192,99980,1,0,0:0:0:0:
320,192,100065,1,0,0:0:0:0:
448,192,100151,1,0,0:0:0:0:
320,192,100237,1,0,0:0:0:0:
448,192,100322,1,0,0:0:0:0:
320,192,100408,1,0,0:0:0:0:
192,192,100494,1,0,0:0:0:0:
320,192,100580,1,0,0:0:0:0:
192,192,100665,1,0,0:0:0:0:
320,192,100751,1,0,0:0:0:0:
192,192,100837,1,0,0:0:0:0:
64,192,100922,1,0,0:0:0:0:
192,192,101008,1,0,0:0:0:0:
64,192,101094,1,0,0:0:0:0:
192,192,101180,1,0,0:0:0:0:
320,192,101265,1,0,0:0:0:0:
192,192,101351,1,0,0:0:0:0:
320,192,101437,1,0,0:0:0:0:
64,192,101522,128,0,101694:0:0:0:0:
192,192,101694,1,0,0:0:0:0:
320,192,101780,1,0,0:0:0:0:
192,192,101865,1,0,0:0:0:0:
320,192,101951,1,0,0:0:0:0:
448,192,102037,128,0,102208:0:0:0:0:
320,192,102208,1,0,0:0:0:0:
192,192,102294,1,0,0:0:0:0:
320,192,102380,1,0,0:0:0:0:
192,192,102465,1,0,0:0:0:0:
64,192,102551,128,0,102637:0:0:0:0:
320,192,102637,1,0,0:0:0:0:
192,192,102722,128,0,102894:0:0:0:0:
320,192,102894,1,0,0:0:0:0:
448,192,102894,1,0,0:0:0:0:
64,192,102894,1,0,0:0:0:0:
192,192,103065,1,0,0:0:0:0:
320,192,103237,1,0,0:0:0:0:
448,192,103408,1,0,0:0:0:0:
320,192,103580,1,0,0:0:0:0:
192,192,103751,1,0,0:0:0:0:
64,192,103922,1,0,0:0:0:0:
192,192,104008,1,0,0:0:0:0:
448,192,104094,1,0,0:0:0:0:
320,192,104180,1,0,0:0:0:0:
448,192,104265,1,0,0:0:0:0:
192,192,104265,1,0,0:0:0:0:
64,192,104265,1,0,0:0:0:0:
448,192,104437,1,0,0:0:0:0:
320,192,104608,1,0,0:0:0:0:
192,192,104780,1,0,0:0:0:0:
64,192,104951,1,0,0:0:0:0:
192,192,105122,1,0,0:0:0:0:
448,192,105294,1,0,0:0:0:0:
320,192,105380,1,0,0:0:0:0:
192,192,105465,1,0,0:0:0:0:
64,192,105551,1,0,0:0:0:0:
192,192,105637,1,0,0:0:0:0:
320,192,105637,1,0,0:0:0:0:
448,192,105637,1,0,0:0:0:0:
64,192,105808,1,0,0:0:0:0:
192,192,105980,1,0,0:0:0:0:
448,192,106151,1,0,0:0:0:0:
320,192,106322,1,0,0:0:0:0:
192,192,106322,1,0,0:0:0:0:
64,192,106322,1,0,0:0:0:0:
448,192,106494,1,0,0:0:0:0:
320,192,106665,1,0,0:0:0:0:
64,192,106837,1,0,0:0:0:0:
192,192,107008,1,0,0:0:0:0:
320,192,107008,1,0,0:0:0:0:
448,192,107008,1,0,0:0:0:0:
64,192,107094,1,0,0:0:0:0:
320,192,107180,1,0,0:0:0:0:
448,192,107265,1,0,0:0:0:0:
320,192,107351,1,0,0:0:0:0:
192,192,107351,1,0,0:0:0:0:
64,192,107351,1,0,0:0:0:0:
448,192,107437,1,0,0:0:0:0:
64,192,107522,1,0,0:0:0:0:
192,192,107608,1,0,0:0:0:0:
320,192,107694,1,0,0:0:0:0:
448,192,107694,1,0,0:0:0:0:
64,192,107694,1,0,0:0:0:0:
192,192,107780,1,0,0:0:0:0:
448,192,107865,1,0,0:0:0:0:
320,192,107951,1,0,0:0:0:0:
192,192,108037,1,0,0:0:0:0:
64,192,108037,1,0,0:0:0:0:
448,192,108037,1,0,0:0:0:0:
320,192,108122,1,0,0:0:0:0:
192,192,108208,1,0,0:0:0:0:
64,192,108294,1,0,0:0:0:0:
192,192,108380,1,0,0:0:0:0:
320,192,108380,1,0,0:0:0:0:
448,192,108380,1,0,0:0:0:0:
64,192,108551,1,0,0:0:0:0:
192,192,108722,1,0,0:0:0:0:
320,192,108894,1,0,0:0:0:0:
64,192,109065,1,0,0:0:0:0:
448,192,109237,1,0,0:0:0:0:
64,192,109408,1,0,0:0:0:0:
192,192,109494,1,0,0:0:0:0:
320,192,109580,1,0,0:0:0:0:
448,192,109665,1,0,0:0:0:0:
320,192,109751,1,0,0:0:0:0:
192,192,109751,1,0,0:0:0:0:
64,192,109751,1,0,0:0:0:0:
448,192,109922,1,0,0:0:0:0:
320,192,110094,1,0,0:0:0:0:
192,192,110265,1,0,0:0:0:0:
448,192,110437,1,0,0:0:0:0:
64,192,110608,1,0,0:0:0:0:
448,192,110780,1,0,0:0:0:0:
320,192,110865,1,0,0:0:0:0:
64,192,110951,1,0,0:0:0:0:
192,192,111037,1,0,0:0:0:0:
320,192,111122,1,0,0:0:0:0:
448,192,111122,1,0,0:0:0:0:
64,192,111122,1,0,0:0:0:0:
192,192,111294,1,0,0:0:0:0:
320,192,111465,1,0,0:0:0:0:
448,192,111637,1,0,0:0:0:0:
192,192,111808,1,0,0:0:0:0:
64,192,111808,1,0,0:0:0:0:
448,192,111808,1,0,0:0:0:0:
320,192,111980,1,0,0:0:0:0:
192,192,112151,1,0,0:0:0:0:
64,192,112322,1,0,0:0:0:0:
192,192,112494,1,0,0:0:0:0:
320,192,112580,1,0,0:0:0:0:
64,192,112665,1,0,0:0:0:0:
448,192,112751,1,0,0:0:0:0:
320,192,112837,1,0,0:0:0:0:
192,192,112922,1,0,0:0:0:0:
448,192,113008,1,0,0:0:0:0:
64,192,113094,1,0,0:0:0:0:
192,192,113180,1,0,0:0:0:0:
320,192,113265,1,0,0:0:0:0:
64,192,113351,1,0,0:0:0:0:
448,192,113437,1,0,0:0:0:0:
320,192,113522,1,0,0:0:0:0:
192,192,113608,1,0,0:0:0:0:
448,192,113694,1,0,0:0:0:0:
64,192,113780,1,0,0:0:0:0:
320,192,113865,1,0,0:0:0:0:
192,192,113865,1,0,0:0:0:0:
